<?xml version="1.0" standalone="no"?>
<!DOCTYPE svg PUBLIC "-//W3C//DTD SVG 1.1//EN" "http://www.w3.org/Graphics/SVG/1.1/DTD/svg11.dtd" >
<svg xmlns="http://www.w3.org/2000/svg">
<metadata>Generated by IcoMoon</metadata>
<defs>
<font id="OrganieFarm" horiz-adv-x="1024">
<font-face units-per-em="1024" ascent="960" descent="-64" />
<missing-glyph horiz-adv-x="1024" />
<glyph unicode="&#x20;" horiz-adv-x="512" d="" />
<glyph unicode="&#xe900;" glyph-name="apple" horiz-adv-x="854" d="M512 940.496c-80.456-24.38-121.904-87.772-121.904-177.98s-2.438-92.648-78.020-80.456c-43.886 7.314-109.714 2.438-146.286-12.19-85.332-31.694-165.79-160.914-165.79-260.876 0-129.22 68.266-314.514 146.286-387.656 63.39-60.952 92.648-70.706 248.686-75.582 268.19-9.752 351.086 53.638 421.79 324.266 43.886 170.668 19.504 268.19-90.21 363.276-60.952 48.762-97.524 60.952-170.668 53.638-90.21-7.314-92.648-7.314-92.648 70.704 0 92.648 60.952 138.972 129.218 99.962 41.448-21.942 41.448-26.82 4.876-68.268-56.076-60.952 0-92.648 63.39-34.134 58.514 51.2 58.514 90.21 4.876 136.532-56.076 46.324-107.276 63.39-153.6 48.762zM414.476 594.286c19.504 0 75.582 4.876 124.342 14.63 70.706 12.19 99.962 2.438 156.038-46.324 58.514-51.2 68.268-73.144 65.828-175.544-7.314-165.79-78.020-314.514-173.106-351.086-60.952-26.818-82.894-26.818-112.152-2.438-31.694 26.818-48.762 24.38-99.962-2.438-87.772-46.324-175.544 7.314-246.248 148.724-119.466 234.058-36.57 460.8 158.476 429.106 48.762-9.752 107.276-14.63 126.782-14.63z" />
<glyph unicode="&#xe901;" glyph-name="banana" horiz-adv-x="834" d="M535.77 878.068c0-9.394 14.614-29.228 31.316-43.838 36.534-30.272 40.712-138.832 9.394-223.384-69.938-183.718-328.812-304.806-508.358-236.954-80.378 31.316-88.728-11.482-17.746-100.212 33.404-41.754 77.246-106.472 96.034-144.052 199.376-384.138 799.592 103.34 629.444 510.444-60.544 144.052-240.086 322.552-240.086 237.998zM714.27 636.938c125.262-300.63-171.192-673.286-438.418-551.154-61.586 28.184-68.894 56.368-16.702 72.026 248.438 78.288 401.884 257.834 401.884 466.604 0 103.34 13.572 106.474 53.236 12.526zM492.972 361.36c-110.646-114.826-231.736-163.886-310.026-123.174-88.728 45.928-92.904 66.808-12.526 57.412 93.948-11.482 264.096 46.972 324.64 111.692 26.098 28.184 52.192 45.928 58.454 40.712 6.264-6.264-21.922-44.886-60.544-86.64z" />
<glyph unicode="&#xe902;" glyph-name="basket" horiz-adv-x="1097" d="M429.105 881.981c-21.943-29.257-39.010-85.333-39.010-121.905v-68.267h-177.981c-99.962 0-185.295-4.876-192.61-12.19s26.819-173.105 75.581-368.152l87.771-353.524 746.057-9.752 21.943 85.333c53.638 207.238 117.029 482.743 131.657 568.076l17.067 90.21h-197.486c-190.171 0-197.486 2.438-195.048 56.076 2.438 29.257 4.876 65.829 2.438 82.895-9.752 107.276-214.552 143.848-280.381 51.2zM619.276 847.848c21.943-19.505 39.010-63.39 39.010-97.524 0-51.2-9.752-58.514-97.524-58.514-92.648 0-97.524 4.876-97.524 73.143 0 41.448 17.067 80.457 43.886 95.086 56.076 34.133 68.267 34.133 112.152-12.19zM1014.248 577.219c-7.314-24.381-41.448-160.914-78.019-307.2l-63.39-260.876h-626.59l-24.381 92.648c-56.076 212.114-124.343 490.057-124.343 502.248 0 7.314 209.676 14.629 465.676 14.629 431.543 0 463.238-2.438 451.048-41.448zM280.381 360.229c17.067-173.105 43.886-234.057 80.457-190.171 31.695 31.695-26.819 334.019-63.39 346.21-26.819 7.314-29.257-21.943-17.067-156.038zM521.752 487.010c-24.381-60.952 2.438-314.514 34.133-326.705 21.943-7.314 29.257 39.010 29.257 175.543 0 112.152-9.752 185.295-24.381 185.295s-31.695-14.629-39.010-34.133zM768 418.743c-7.314-58.514-21.943-141.41-29.257-182.857-9.752-63.39-4.876-80.457 24.381-80.457 26.819 0 43.886 34.133 53.638 117.029 7.314 63.39 21.943 143.848 26.819 182.857 9.752 48.762 4.876 65.829-21.943 65.829-24.381 0-41.448-34.133-53.638-102.4z" />
<glyph unicode="&#xe903;" glyph-name="blender" horiz-adv-x="796" d="M0 937.244c0-13.653 29.582-81.92 65.991-154.738 34.133-70.542 77.369-197.973 91.022-279.893 27.307-138.809 25.031-154.738-18.204-227.556-61.44-97.849-61.44-202.524 0-279.893 43.236-56.889 56.889-59.164 259.413-59.164 207.076 0 216.178 2.276 254.862 59.164 54.613 84.196 47.787 200.249-11.378 282.169-50.062 65.991-50.062 77.369-25.031 277.618 31.858 270.791 34.133 282.169 77.369 245.76 25.031-20.48 34.133-77.369 34.133-209.351 0-134.258 6.827-179.769 29.582-172.942 43.236 15.929 50.062 327.68 4.551 395.947-18.204 29.582-50.062 54.613-68.267 54.613s-34.133 20.48-34.133 45.511c0 43.236-15.929 45.511-329.956 45.511-211.627 0-329.956-9.102-329.956-22.756zM591.644 864.427c0-15.929-15.929-136.533-34.133-268.516s-34.133-245.76-34.133-254.862c0-11.378-59.164-18.204-131.982-18.204h-134.258l-27.307 166.116c-15.929 88.747-52.338 218.453-81.92 284.444l-54.613 118.329h250.311c184.32 0 248.036-6.827 248.036-27.307zM616.676 193.138c13.653-34.133 13.653-81.92 2.276-118.329-18.204-56.889-27.307-59.164-207.076-65.991-213.902-6.827-252.587 11.378-252.587 118.329 0 111.502 31.858 127.431 243.484 127.431 184.32 0 191.147-2.276 213.902-61.44zM282.169 454.827c-6.827-9.102 18.204-29.582 52.338-47.787 65.991-36.409 166.116-11.378 166.116 40.96 0 29.582-200.249 36.409-218.453 6.827zM357.262 149.902c-20.48-22.756 4.551-54.613 43.236-54.613 18.204 0 31.858 15.929 31.858 34.133 0 34.133-47.787 47.787-75.093 20.48z" />
<glyph unicode="&#xe904;" glyph-name="bread" horiz-adv-x="1092" d="M250.311 934.969c-131.982-52.338-175.218-216.178-93.298-352.711l43.236-72.818-68.267-13.653c-38.684-6.827-84.196-25.031-102.4-38.684-38.684-34.133-38.684-122.88 4.551-163.84 20.48-20.48 34.133-91.022 38.684-186.596l6.827-154.738 227.556 2.276h227.556l-6.827 97.849-9.102 100.124 77.369-72.818c150.187-145.636 309.476-170.667 420.978-68.267 143.36 129.707 75.093 302.649-245.76 639.431-277.618 291.271-370.916 343.609-521.102 284.444zM468.764 843.947c43.236-25.031 77.369-52.338 77.369-59.164s-22.756-29.582-50.062-52.338c-43.236-34.133-47.787-47.787-22.756-72.818s38.684-20.48 75.093 25.031l45.511 56.889 122.88-122.88-52.338-36.409c-43.236-29.582-47.787-40.96-22.756-70.542s31.858-27.307 70.542 18.204l40.96 52.338 59.164-61.44 61.44-59.164-56.889-45.511c-45.511-36.409-50.062-50.062-25.031-75.093s38.684-20.48 72.818 22.756l43.236 52.338 56.889-100.124c75.093-129.707 75.093-204.8 0-263.964-104.676-81.92-175.218-59.164-366.364 120.604-75.093 68.267-75.093 68.267-29.582 109.227 113.778 106.951 6.827 223.004-202.524 223.004-75.093 0-91.022 11.378-134.258 88.747-63.716 111.502-63.716 179.769 0 245.76 61.44 65.991 136.533 65.991 236.658 4.551zM514.276 402.489c43.236-34.133 43.236-34.133 0-68.267-36.409-27.307-43.236-59.164-38.684-182.044l4.551-147.911h-343.609v159.289c0 122.88-6.827 159.289-31.858 159.289-54.613 0-68.267 50.062-25.031 84.196 61.44 43.236 375.467 40.96 434.631-4.551z" />
<glyph unicode="&#xe905;" glyph-name="broccoli" d="M214.552 877.105c-163.352-97.524-190.171-134.095-190.171-251.124 0-138.971 34.133-197.486 136.533-241.371 95.086-39.010 158.476-156.038 180.419-324.267l12.19-104.838h316.952l-7.314 68.267c-12.19 87.771 112.152 351.086 165.79 351.086 75.581 0 170.667 129.219 170.667 234.057 0 119.467-41.448 182.857-177.981 260.876-87.771 53.638-134.095 60.952-309.638 60.952-173.105 2.438-221.867-7.314-297.448-53.638zM455.924 850.286c46.324-31.695 60.952-31.695 126.781 4.876 58.514 34.133 80.457 36.571 104.838 12.19 21.943-21.943 19.505-29.257-14.629-29.257-24.381 0-39.010-14.629-31.695-29.257 4.876-19.505 43.886-29.257 97.524-24.381 68.267 7.314 102.4-4.876 151.162-53.638 75.581-75.581 78.019-138.971 7.314-219.429-65.829-70.705-99.962-80.457-207.238-53.638-43.886 9.752-97.524 7.314-124.343-7.314-34.133-17.067-70.705-17.067-119.467 0-46.324 14.629-95.086 14.629-131.657 0-41.448-14.629-85.333-12.19-134.095 9.752-119.467 48.762-141.41 158.476-56.076 265.752 41.448 53.638 68.267 65.829 138.971 58.514 53.638-4.876 90.21 4.876 97.524 24.381 4.876 14.629-2.438 29.257-17.067 29.257s-26.819 12.19-26.819 24.381c0 36.571 80.457 29.257 138.971-12.19zM443.733 333.41l68.267-65.829 68.267 65.829c95.086 92.648 148.724 53.638 80.457-58.514-29.257-46.324-51.2-124.343-51.2-173.105 0-92.648 0-92.648-97.524-92.648-92.648 0-97.524 4.876-97.524 73.143 0 41.448-21.943 119.467-48.762 173.105-46.324 87.771-48.762 143.848-4.876 143.848 7.314 0 46.324-29.257 82.895-65.829z" />
<glyph unicode="&#xe906;" glyph-name="carrot" horiz-adv-x="386" d="M65.691 938.747c-7.728-13.525-5.796-27.049 7.728-32.845 44.438-13.525 23.185-36.709-25.117-27.049-34.777 5.796-48.302 0-48.302-21.253 0-15.457 25.117-32.845 57.962-38.642 36.709-7.728 65.691-32.845 85.011-67.623 30.913-61.826 25.117-81.147-28.981-81.147-19.321 0-48.302-21.253-65.691-46.37-27.049-40.574-25.117-67.623 40.574-341.977 83.079-347.774 92.74-374.823 121.721-307.2 27.049 65.691 137.177 533.253 137.177 589.283 0 48.302-56.030 106.264-102.4 106.264-73.419 0-17.389 108.196 75.351 146.838 36.709 15.457 65.691 36.709 65.691 46.37 0 32.845-88.875 21.253-141.042-19.321-48.302-38.642-50.234-38.642-59.894-3.864-7.728 19.321-32.845 56.030-57.962 79.215-34.777 32.845-50.234 36.709-61.826 19.321zM270.491 602.566c15.457-19.321 19.321-57.962 11.592-115.925-11.592-69.555-21.253-86.943-52.166-86.943-23.185 0-36.709-9.66-30.913-23.185 3.864-13.525 19.321-23.185 32.845-19.321 15.457 3.864 19.321-5.796 13.525-23.185-7.728-17.389-17.389-73.419-25.117-127.517-7.728-52.166-19.321-96.604-25.117-96.604-7.728 0-28.981 75.351-48.302 168.091-19.321 90.808-38.642 177.751-44.438 193.208-7.728 17.389 3.864 23.185 32.845 21.253 25.117-3.864 48.302 5.796 52.166 19.321 5.796 15.457-11.592 23.185-50.234 23.185-65.691 0-75.351 21.253-28.981 65.691 38.642 38.642 131.381 40.574 162.294 1.932z" />
<glyph unicode="&#xe907;" glyph-name="coconut" horiz-adv-x="1434" d="M807.497 925.867c-98.499-19.505-188.221-68.267-256.488-137.509-59.49-60.465-121.905-162.865-121.905-198.949 0-39.010-35.109-17.554-141.41 87.771-60.465 59.49-114.103 107.276-120.93 107.276-13.653 0-77.044-61.44-95.573-92.648-55.589-90.697-71.192-151.162-71.192-269.166 0-156.038 37.059-246.735 139.459-347.185 104.35-102.4 196.998-139.459 347.185-139.459 59.49 0 103.375 5.851 145.31 19.505l60.465 19.505 60.465-19.505c67.291-22.43 220.404-27.307 279.893-8.777 144.335 43.886 266.24 147.261 326.705 275.017 19.505 41.935 35.109 82.895 35.109 92.648 0 32.183 20.48 89.722 30.232 84.846 4.876-3.901 8.777 8.777 8.777 27.307 0 20.48-5.851 36.084-13.653 39.010s-16.579 27.307-20.48 57.539c-12.678 90.697-66.316 189.196-147.261 269.166-39.985 38.034-78.019 70.217-84.846 70.217s-17.554 4.876-24.381 11.703c-16.579 16.579-75.093 36.084-153.112 52.663-79.97 16.579-95.573 15.604-182.37-0.975zM996.693 839.070c109.227-28.282 173.592-72.168 249.661-168.716 16.579-21.455 31.208-44.861 31.208-50.712 0-6.827 5.851-21.455 13.653-33.158 6.827-11.703 18.53-52.663 24.381-91.672 19.505-112.152-6.827-213.577-79.97-312.076-80.945-109.227-202.85-168.716-344.259-168.716-82.895 0-105.326 15.604-73.143 47.787 39.985 39.985 30.232 55.589-155.063 239.909-96.549 96.549-175.543 182.37-175.543 190.171 0 8.777 7.802 37.059 17.554 63.39 75.093 213.577 288.67 337.432 491.52 283.794zM447.634 393.387c151.162-151.162 274.042-280.869 274.042-290.621 0-33.158-150.187-88.747-237.958-88.747-60.465 0-162.865 26.331-183.345 46.811-6.827 6.827-16.579 11.703-22.43 11.703-19.505 0-100.45 78.994-133.608 128.731-47.787 74.118-66.316 137.509-66.316 222.354 0 73.143 22.43 162.865 47.787 188.221 5.851 5.851 10.728 15.604 10.728 21.455 0 11.703 19.505 34.133 30.232 34.133 3.901 0 130.682-122.88 280.869-274.042zM916.724 618.667c-24.381-24.381-24.381-40.96-1.95-61.44 23.406-21.455 63.39-20.48 82.895 0.975 21.455 24.381 20.48 36.084-4.876 60.465-27.307 24.381-50.712 25.356-76.069 0zM1122.499 517.242c-27.307-29.257-24.381-50.712 10.728-72.168 22.43-13.653 29.257-13.653 50.712-1.95 36.084 18.53 40.96 45.836 14.629 74.118-27.307 29.257-48.762 29.257-76.069 0zM916.724 413.867c-24.381-24.381-24.381-40.96-1.95-61.44 23.406-21.455 63.39-20.48 82.895 0.975 21.455 24.381 20.48 36.084-4.876 60.465-27.307 24.381-50.712 25.356-76.069 0z" />
<glyph unicode="&#xe908;" glyph-name="corn" horiz-adv-x="585" d="M219.429 909.845c-58.514-58.514-81.502-165.094-66.873-296.751l10.449-96.131-56.424 54.335c-60.604 58.514-117.029 73.143-100.31 25.078 31.347-79.412 54.335-204.8 68.963-357.355 12.539-142.106 22.988-173.453 73.143-223.608 81.502-81.502 206.89-81.502 288.392 0 52.245 50.155 58.514 77.322 71.053 236.147 6.269 98.22 25.078 217.339 41.796 265.404 39.706 110.759 10.449 133.747-71.053 54.335l-60.604-58.514v152.555c0 156.735-33.437 259.135-94.041 282.122-48.065 18.808-48.065 18.808-104.49-37.616zM263.314 809.535c-6.269-68.963-54.335-110.759-54.335-48.065 0 35.527 35.527 114.939 52.245 114.939 6.269 0 6.269-29.257 2.090-66.873zM363.624 778.188c12.539-35.527 6.269-48.065-16.718-48.065-25.078 0-33.437 20.898-33.437 79.412 2.090 79.412 20.898 66.873 50.155-31.347zM265.404 642.351c-10.449-66.873-56.424-73.143-56.424-8.359 0 33.437 12.539 54.335 31.347 54.335 20.898 0 29.257-16.718 25.078-45.976zM376.163 636.082c0-33.437-12.539-52.245-31.347-52.245s-31.347 18.808-31.347 52.245c0 33.437 12.539 52.245 31.347 52.245s31.347-18.808 31.347-52.245zM265.404 479.347c0-50.155-6.269-56.424-29.257-39.706-14.629 12.539-27.167 41.796-27.167 62.694 0 22.988 12.539 39.706 27.167 39.706 16.718 0 29.257-25.078 29.257-62.694zM376.163 502.335c0-20.898-14.629-50.155-31.347-64.784-27.167-22.988-31.347-16.718-31.347 39.706 0 43.886 10.449 64.784 31.347 64.784 16.718 0 31.347-16.718 31.347-39.706zM192.261 284.996l-56.424-58.514-12.539 112.849c-6.269 62.694-20.898 125.388-29.257 142.106s22.988-8.359 68.963-52.245l87.771-83.592-58.514-60.604zM472.294 443.82c-8.359-18.808-18.808-91.951-25.078-160.914-16.718-196.441-25.078-217.339-91.951-252.865-71.053-37.616-146.286-16.718-196.441 54.335-31.347 45.976-27.167 52.245 129.567 219.429 160.914 169.273 208.98 206.89 183.902 140.016z" />
<glyph unicode="&#xe909;" glyph-name="cucumber" horiz-adv-x="1001" d="M944.873 939.055c-9.309-13.964-53.527-25.6-100.073-25.6-104.727 0-269.964-118.691-518.982-372.364-230.4-235.055-314.182-356.073-307.2-449.164 11.636-146.618 137.309-172.218 295.564-62.836l102.4 69.818 67.491-69.818c55.855-55.855 90.764-69.818 167.564-69.818 123.345 0 232.727 97.745 232.727 209.455 0 95.418-58.182 202.473-118.691 221.091-46.545 16.291-46.545 18.618 20.945 88.436 121.018 128 186.182 242.036 174.545 307.2-6.982 32.582 0 74.473 16.291 93.091 20.945 25.6 23.273 44.218 6.982 60.509-18.618 18.618-30.255 16.291-39.564 0zM907.636 792.436c0-95.418-225.745-358.4-328.145-379.345-74.473-16.291-160.582-111.709-160.582-176.873 0-25.6-53.527-83.782-125.673-137.309-109.382-81.455-134.982-93.091-174.545-69.818-27.927 13.964-48.873 41.891-48.873 65.164 2.327 79.127 297.891 414.255 565.527 637.673 153.6 125.673 272.291 153.6 272.291 60.509zM761.018 303.709c88.436-83.782 67.491-207.127-44.218-265.309-55.855-27.927-76.8-30.255-130.327-4.655-34.909 16.291-76.8 58.182-93.091 93.091-25.6 53.527-23.273 74.473 4.655 132.655 58.182 107.055 174.545 128 262.982 44.218zM665.6 264.145c-6.982-11.636-34.909-16.291-58.182-9.309-37.236 9.309-41.891 0-39.564-65.164 2.327-69.818 11.636-79.127 79.127-81.455 58.182-2.327 74.473 4.655 69.818 34.909-2.327 20.945 2.327 48.873 11.636 62.836 9.309 16.291 0 39.564-16.291 53.527-20.945 16.291-39.564 18.618-46.545 4.655zM674.909 192c0-11.636-9.309-23.273-23.273-23.273-11.636 0-23.273 11.636-23.273 23.273 0 13.964 11.636 23.273 23.273 23.273 13.964 0 23.273-9.309 23.273-23.273z" />
<glyph unicode="&#xe90a;" glyph-name="delivery" horiz-adv-x="1134" d="M237.734 728.392c0-3.842-3.842-10.422-8.776-14.814-7.135-5.488-8.23-16.461-6.585-53.773l1.646-47.19h-55.42c-47.19 0-57.615-1.646-67.489-10.422-14.271-13.169-14.814-21.946-0.546-36.214 9.876-9.876 17.012-10.422 83.399-8.776 88.894 2.747 79.012 0.546 89.441 16.461 7.135 10.978 7.681 18.658 2.747 49.384-9.328 60.358-30.729 55.42 235.394 54.874 127.3-0.546 232.657-2.195 234.303-3.292 3.292-3.842 3.292-405.498 0-409.339-1.646-1.101-57.066-2.195-124.008-2.195l-121.262 0.546-27.44 27.44c-26.333 26.885-28.535 27.98-57.615 27.98s-30.729-1.101-59.809-30.181c-26.333-26.333-33.474-30.181-51.578-30.181-30.729 0-34.568 7.681-27.98 54.874 3.292 21.398 3.842 42.251 1.646 45.544-14.814 24.147-17.559 24.691-92.733 25.239-68.588 0.546-73.527 0-84.507-11.522-11.522-12.069-10.422-29.626 2.195-38.959 3.292-2.747 29.626-3.292 58.712-1.646 35.666 1.646 54.874 0.546 58.712-3.292 4.394-4.394 5.488-20.851 2.747-52.128-2.747-40.055-2.195-47.19 7.135-57.066 9.328-10.422 14.271-10.978 52.128-7.681 40.606 3.842 42.796 3.292 49.384-8.776 3.842-7.135 13.715-19.754 21.946-27.98 14.271-14.271 18.107-15.365 60.908-15.365 44.997 0 46.644 0.546 63.65 18.107 9.876 9.876 17.559 20.851 17.559 24.691s1.646 6.585 4.394 6.585c2.195 0.546 72.979 1.101 157.478 1.646 131.143 1.101 154.737 0 160.771-7.135 3.842-4.394 13.169-16.461 20.851-25.794 13.715-18.107 14.814-18.107 60.358-18.107 46.644 0 73.527 8.776 73.527 24.147 0.546 3.292 4.938 11.522 10.978 18.658 8.23 10.422 15.365 12.624 34.022 12.069 13.169-0.546 31.828 2.195 41.704 6.036l17.559 7.135v133.884c0 87.795-1.646 132.237-5.488 130.044-6.585-3.842-16.461 19.754-16.461 38.408 0 20.851-20.851 55.965-45.544 76.818-31.828 27.44-69.69 36.762-143.214 35.115-33.474-1.101-64.196 0.546-68.044 2.747-5.488 3.292-6.585 11.522-3.842 30.729 2.747 19.754 1.646 29.626-4.938 39.503-4.938 7.681-7.135 15.365-4.938 17.012 1.646 2.195-4.394 3.842-13.715 3.842-12.069 0-17.559-2.747-17.559-8.23 0-7.135-30.729-8.23-241.432-8.23-209.61 0-241.983 1.101-244.724 8.23-4.394 10.422-29.626 10.978-29.626 0.546zM934.048 587.374c32.375-6.585 60.908-31.828 76.818-67.489 9.328-21.398 10.978-38.408 11.522-136.078 0.546-61.455 0.546-114.681 0.546-117.973-0.546-4.394-7.681-7.135-17.012-7.135-15.917 0-27.98 8.23-44.445 30.729-14.271 20.304-34.022 29.626-62.004 29.626-24.147 0-28.535-2.195-49.384-23.592-12.069-12.624-25.239-27.98-28.535-34.022-5.488-8.776-8.776-9.876-16.461-4.938-8.776 4.938-9.328 17.559-8.776 167.36 0.546 88.894 1.101 162.968 1.101 165.714 0 6.036 105.351 4.394 136.633-2.195zM439.111 259.795c6.585-4.938 13.715-15.917 15.365-24.147 3.292-12.624 0.546-18.107-13.715-31.828-21.398-20.304-31.271-20.851-51.026-2.747-37.313 35.115 8.776 90.535 49.384 58.712zM931.851 252.654c7.681-9.876 13.169-20.851 11.522-25.239-2.195-4.394-3.292-9.876-3.292-12.069s-7.681-9.328-17.012-16.461c-14.814-10.978-18.658-11.522-32.375-6.036-15.917 6.585-32.922 26.885-32.922 39.503 0 3.292 6.585 13.715 14.814 21.946 19.754 20.851 40.606 20.304 59.262-1.646zM458.864 555.548c-16.461-13.715-15.917-24.691 1.101-35.666 7.681-4.938 13.715-14.271 13.715-20.304 0-10.422-2.195-11.522-17.559-7.681-9.876 2.747-110.84 4.938-223.874 6.036-223.326 1.101-224.971 1.101-224.971-28.535 0-24.691 9.328-25.794 247.474-23.044 123.464 1.101 224.427 0 224.427-2.195 0-1.646-7.135-10.978-16.461-19.754-20.304-20.304-20.851-35.115-2.195-47.19l13.715-9.328 46.644 44.997c30.181 29.626 46.092 49.384 46.092 57.615 0 12.069-75.172 91.087-89.441 93.828-3.842 1.101-12.069-3.292-18.658-8.776z" />
<glyph unicode="&#xe90b;" glyph-name="droplets" horiz-adv-x="740" d="M201.956 745.244c-294.4-439.467-221.867-809.244 159.289-809.244 423.822 0 494.933 415.289 147.911 874.667-142.222 189.156-136.533 190.578-307.2-65.422zM615.822 466.489c146.489-285.867-103.822-548.978-384-403.911-204.8 105.244-186.311 305.778 59.733 665.6l85.333 123.733 82.489-123.733c46.933-68.267 116.622-186.311 156.444-261.689zM512 292.978c-14.222-41.244-61.156-86.756-100.978-100.978-83.911-32.711-79.644-103.822 4.267-91.022 64 9.956 182.044 133.689 182.044 190.578 0 73.956-56.889 75.378-85.333 1.422z" />
<glyph unicode="&#xe90c;" glyph-name="eco-bag" horiz-adv-x="774" d="M273.067 914.489c-25.031-25.031-45.511-76.231-45.511-112.64 0-63.716-5.689-67.129-108.089-73.956l-108.089-6.827v-773.689h750.933v773.689l-116.053 6.827c-109.227 6.827-116.053 10.24-105.813 61.44 23.893 126.293-172.942 219.591-267.378 125.156zM458.524 835.982c38.684-85.333 13.653-119.467-80.782-108.089-65.991 7.964-81.92 19.342-81.92 59.164 0 108.089 119.467 143.36 162.702 48.924zM705.422 334.222v-329.956h-658.773l11.378 324.267c5.689 178.631 10.24 326.542 10.24 329.956s143.36 5.689 318.578 5.689h318.578v-329.956zM319.716 460.516c-52.338-72.818-26.169-118.329 37.547-65.991 29.582 23.893 38.684 25.031 46.649 2.276 11.378-34.133 73.956-38.684 73.956-4.551 0 32.996-69.404 135.396-92.16 135.396-10.24 0-39.822-29.582-65.991-67.129zM194.56 286.436c-50.062-76.231-32.996-114.916 53.476-118.329 83.058-2.276 114.916 36.409 62.578 75.093-20.48 15.929-37.547 44.373-37.547 64.853 0 54.613-35.271 45.511-78.507-21.618zM488.107 321.707c-7.964-13.653-9.102-30.72-1.138-37.547 6.827-7.964-3.413-26.169-23.893-40.96-52.338-37.547-19.342-79.644 62.578-79.644 85.333 0 104.676 48.924 51.2 122.88-46.649 63.716-65.991 71.68-88.747 35.271z" />
<glyph unicode="&#xe90d;" glyph-name="egg" horiz-adv-x="683" d="M311.263 951.060c0.813-4.876-8.94-13.003-22.756-17.067-63.39-21.943-135.721-100.775-182.857-201.549-75.581-160.914-101.587-272.254-100.775-426.667 0.813-140.597 8.94-169.041 70.705-253.562 39.010-52.013 78.019-79.644 147.911-104.838 39.010-13.816 172.292-15.441 204.8-2.438 92.648 36.571 153.6 86.959 184.483 150.349 8.127 17.879 17.879 38.197 21.943 46.324s13.816 44.698 20.317 81.27c13.816 71.517 8.127 151.975-17.879 249.498-29.257 107.276-37.384 135.721-48.762 156.851-6.502 13.003-11.378 27.632-11.378 32.508 0 5.689-17.067 44.698-38.197 86.959-44.698 87.771-117.841 169.854-164.978 183.67-15.441 4.876-27.632 13.003-26.006 17.879 0.813 5.689-7.314 9.752-18.692 9.752s-19.505-4.063-17.879-8.94zM364.089 858.413c28.444-14.629 91.835-95.086 112.152-142.222 2.438-6.502 9.752-24.381 16.254-38.197 34.133-76.394 51.2-124.343 59.327-165.79 3.251-15.441 8.94-32.508 11.378-37.384 8.127-13.003 30.070-138.971 30.070-173.105 0-40.635-20.317-129.219-37.384-162.54-8.127-15.441-33.321-47.137-56.076-69.079-115.403-112.965-316.14-82.083-392.533 60.952-24.381 43.886-42.26 117.841-42.26 170.667 0 75.581 29.257 213.74 61.765 290.946 6.502 14.629 11.378 30.883 11.378 36.571 0 13.003 47.137 105.651 74.768 147.911 33.321 51.2 83.708 92.648 112.965 93.46 7.314 0 24.381-5.689 38.197-12.19z" />
<glyph unicode="&#xe90e;" glyph-name="egg-plant" horiz-adv-x="394" d="M129.969 944.246c-6.892-12.8-3.938-41.354 8.862-64 18.708-35.446 15.754-47.262-19.692-70.892-79.754-56.123-158.523-261.908-89.6-236.308 38.4 14.769 38.4-59.077 0-203.815-61.046-226.462-29.538-351.508 101.415-405.662 174.277-72.862 307.2 107.323 245.169 331.815-52.185 188.062-59.077 292.431-18.708 279.631 20.677-6.892 36.431-1.969 36.431 9.846 0 49.231-100.431 215.631-137.846 227.446-21.662 6.892-39.385 24.615-39.385 38.4 0 43.323-70.892 119.138-86.646 93.538zM239.262 750.277c49.231-44.308 46.277-60.062-21.662-94.523-103.385-54.154-159.508 7.877-79.754 87.631 48.246 48.246 56.123 48.246 101.415 6.892zM275.692 530.708c0-40.369 13.785-125.046 29.538-188.062 58.092-223.508 21.662-327.877-115.2-327.877-103.385 0-137.846 53.169-124.062 191.015 17.723 172.308 61.046 384 75.815 369.231 6.892-6.892 28.554-2.954 48.246 8.862 65.969 37.415 85.662 25.6 85.662-53.169z" />
<glyph unicode="&#xe90f;" glyph-name="grain" horiz-adv-x="591" d="M236.308 896.985c-51.2-84.677-66.954-163.446-39.385-210.708 25.6-49.231 23.631-49.231-68.923-9.846-100.431 41.354-129.969 25.6-116.185-55.138 7.877-35.446 25.6-84.677 39.385-108.308 25.6-41.354 25.6-45.292-11.815-45.292-33.477 0-37.415-9.846-25.6-63.015 15.754-90.585 59.077-169.354 104.369-192.985 25.6-13.785 39.385-45.292 43.323-108.308 7.877-106.338 45.292-110.277 43.323-3.938-1.969 57.108 5.908 72.862 27.569 68.923s29.538-35.446 31.508-112.246c1.969-149.662 47.262-157.538 55.138-9.846 7.877 137.846 49.231 169.354 59.077 43.323 7.877-112.246 43.323-108.308 51.2 3.938 3.938 66.954 21.662 104.369 64.985 149.662 70.892 74.831 104.369 224.492 49.231 224.492-39.385 0-39.385 17.723-1.969 66.954 15.754 21.662 29.538 68.923 29.538 106.338 0 64.985-1.969 64.985-63.015 53.169-35.446-7.877-72.862-21.662-84.677-31.508-33.477-31.508-41.354-17.723-33.477 64.985 9.846 86.646-37.415 200.862-88.615 220.554-15.754 5.908-41.354-13.785-64.985-51.2zM334.769 743.385c0-39.385-11.815-88.615-27.569-108.308-25.6-35.446-29.538-33.477-47.262 35.446-13.785 49.231-13.785 96.492 0 145.723 17.723 68.923 21.662 70.892 47.262 35.446 15.754-19.692 27.569-68.923 27.569-108.308zM196.923 552.369c31.508-35.446 59.077-78.769 59.077-96.492 0-25.6-7.877-25.6-59.077 1.969-53.169 27.569-137.846 131.938-137.846 171.323 0 31.508 84.677-13.785 137.846-76.8zM484.431 550.4c-25.6-49.231-145.723-131.938-165.415-112.246-17.723 17.723 64.985 133.908 120.123 167.385 72.862 45.292 88.615 27.569 45.292-55.138zM189.046 341.662c37.415-37.415 66.954-82.708 66.954-100.431 0-29.538-5.908-29.538-63.015 3.938-35.446 19.692-80.738 64.985-100.431 100.431-33.477 57.108-33.477 63.015-3.938 63.015 17.723 0 63.015-29.538 100.431-66.954zM512 388.923c0-41.354-64.985-120.123-122.092-149.662-76.8-39.385-88.615-23.631-37.415 57.108 49.231 80.738 159.508 143.754 159.508 92.554zM330.831 365.292c-5.908-13.785-21.662-25.6-35.446-25.6s-29.538 11.815-33.477 25.6c-5.908 13.785 7.877 23.631 33.477 23.631s39.385-9.846 35.446-23.631z" />
<glyph unicode="&#xe910;" glyph-name="grape" horiz-adv-x="773" d="M384.522 886.857c-22.988-35.527-31.347-77.322-22.988-125.388 12.539-79.412 10.449-83.592-50.155-52.245-54.335 29.257-160.914-25.078-177.633-94.041-6.269-27.167-35.527-64.784-62.694-83.592-71.053-45.976-71.053-179.722 0-234.057 27.167-20.898 56.424-60.604 62.694-85.682 8.359-25.078 37.616-62.694 66.873-79.412 27.167-18.808 50.155-50.155 50.155-71.053 0-54.335 68.963-104.49 142.106-104.49s150.465 62.694 150.465 121.208c0 18.808 20.898 45.976 45.976 56.424 27.167 12.539 50.155 39.706 54.335 62.694s35.527 66.873 68.963 98.22c77.322 71.053 79.412 148.376 4.18 225.698-33.437 31.347-60.604 71.053-64.784 85.682-18.808 79.412-112.849 127.478-185.992 100.31-43.886-16.718-48.065-12.539-48.065 52.245 0 66.873 50.155 137.927 98.22 137.927 12.539 0 35.527-14.629 50.155-33.437 22.988-27.167 20.898-35.527-8.359-52.245-45.976-27.167-45.976-60.604 2.090-60.604s87.771 39.706 87.771 85.682c0 60.604-60.604 102.4-146.286 102.4-64.784 0-89.861-10.449-117.029-52.245zM351.086 581.747c12.539-102.4-121.208-135.837-152.555-37.616-18.808 56.424 27.167 106.58 91.951 98.22 41.796-4.18 56.424-18.808 60.604-60.604zM587.233 602.645c18.808-37.616 14.629-52.245-18.808-85.682-48.065-50.155-121.208-35.527-140.016 27.167-29.257 91.951 110.759 144.196 158.824 58.514zM250.776 395.755c0-6.269-10.449-22.988-25.078-37.616-37.616-37.616-117.029-29.257-142.106 14.629-27.167 52.245-27.167 56.424 12.539 94.041 29.257 29.257 37.616 29.257 94.041-12.539 33.437-25.078 60.604-52.245 60.604-58.514zM697.992 452.18c45.976-71.053-58.514-152.555-123.298-98.22-41.796 33.437-39.706 83.592 0 83.592 18.808 0 37.616 14.629 45.976 31.347 14.629 39.706 48.065 31.347 77.322-16.718zM480.653 395.755c0-31.347-62.694-64.784-108.669-58.514-60.604 8.359-75.233 73.143-25.078 110.759 31.347 22.988 45.976 20.898 85.682-4.18 27.167-18.808 48.065-39.706 48.065-48.065zM319.739 282.906c18.808-14.629 35.527-37.616 35.527-48.065 0-37.616-58.514-73.143-102.4-58.514-56.424 16.718-73.143 73.143-29.257 106.58 45.976 35.527 50.155 35.527 96.131 0zM553.796 287.086c62.694-29.257 64.784-41.796 12.539-87.771-25.078-22.988-56.424-31.347-81.502-25.078-58.514 18.808-75.233 75.233-31.347 108.669 45.976 33.437 35.527 33.437 100.31 4.18zM480.653 82.286c0-31.347-62.694-64.784-108.669-58.514-60.604 8.359-75.233 73.143-25.078 110.759 31.347 22.988 45.976 20.898 85.682-4.18 27.167-18.808 48.065-39.706 48.065-48.065z" />
<glyph unicode="&#xe911;" glyph-name="home" horiz-adv-x="1367" d="M341.4 845.737c-0.677-10.822-0.677-24.352 0-30.439 2.030-18.94-11.498-37.203-30.439-41.938-14.88-4.059-21.646-0.677-39.909 20.969-18.94 21.646-24.352 24.352-35.173 18.263-20.293-12.174-18.94-33.82 4.059-50.732 14.88-10.822 20.969-20.969 20.969-33.82 0-23.675-8.118-28.411-50.732-33.143-30.439-3.383-33.82-4.736-33.82-20.293s3.383-16.91 33.82-20.293c42.615-4.736 50.732-9.47 50.732-33.143 0-12.851-6.089-22.999-20.969-33.82-22.999-16.91-24.352-38.556-4.059-50.732 10.146-6.089 15.557-3.383 31.791 14.88 35.173 38.556 71.025 27.058 71.025-23.675 0-31.791 0.677-32.467 21.646-34.497l21.646-2.030 4.059 78.464 22.999 2.030c18.94 2.030 25.705-1.353 39.232-18.263 20.293-25.705 33.82-26.381 43.968-3.383 7.442 16.233 6.765 19.616-13.527 36.526-22.322 18.94-26.381 32.467-14.88 54.789 6.089 10.146 14.88 12.851 43.968 12.851 36.526 0 37.203 0 37.203 20.293s-0.677 20.293-37.203 20.293c-29.087 0-37.879 2.706-43.968 12.851-11.498 22.322-7.442 35.85 14.88 54.789 20.293 16.91 20.969 20.293 13.527 36.526-10.146 22.999-24.352 22.322-42.615-2.706-18.263-24.352-28.411-28.411-50.056-20.293-14.204 5.412-16.91 10.822-16.91 31.791 0 41.938-6.765 56.142-24.352 56.142-12.851 0-16.233-4.059-16.91-18.263zM409.717 720.599c22.322-18.263 24.352-69.673 2.706-89.965-32.467-31.115-51.408-35.85-80.494-20.969-18.94 9.47-50.732 51.408-50.732 65.613 0 14.88 35.173 54.789 56.142 63.584 23.675 9.47 45.321 4.059 72.377-18.263zM889.977 749.683c-12.851-6.765-52.76-27.058-87.936-44.644-68.996-33.82-78.464-42.615-104.846-94.698-20.969-41.938-28.411-54.113-53.436-87.259-24.352-31.791-18.263-48.027 16.91-48.027 22.322 0 22.999-0.677 24.352-31.791 1.353-20.293-1.353-32.467-7.442-34.497-4.736-2.030-33.82 1.353-65.613 7.442-48.703 8.794-65.613 8.794-117.697 1.353-33.143-4.736-68.32-11.498-77.788-14.88-36.526-14.204-89.965-25.705-120.403-25.705-35.85 0-48.703-8.118-48.703-31.791 0-17.587-22.322-21.646-39.909-6.765-19.616 15.557-84.553 32.467-132.579 33.82-45.321 1.353-47.35 0.677-49.38-14.88-2.706-19.616 8.118-27.734 39.232-27.734 43.291-0.677 166.4-38.556 176.545-54.789 3.383-5.412 6.089-39.909 6.089-77.788 0-76.435-2.030-79.817-50.732-98.757-57.495-21.646-75.758-27.058-114.99-33.82-39.909-6.765-57.495-14.88-57.495-26.381 0-3.383 285.45-6.089 659.511-6.089 555.342 0 659.511 1.353 659.511 9.47 0 4.736-10.146 10.822-21.646 13.527-12.174 2.706-177.221 4.059-367.297 3.383l-344.974-0.677-2.030 25.705c-1.353 18.263-9.47 33.82-25.705 51.408-22.999 26.381-27.058 35.85-17.587 50.732 6.765 10.146 38.556 22.322 58.848 22.322 9.47 0 26.381 4.059 38.556 9.47 23.675 10.146 85.906 25.028 164.37 39.232 143.401 25.705 334.153-12.174 455.232-90.642 16.233-10.146 36.526-18.94 45.997-18.94 13.527 0 16.233 3.383 16.233 20.293 0 11.498-2.706 20.293-6.089 20.293-4.059 0-19.616 8.794-35.85 18.94-27.734 18.263-50.056 29.087-100.11 50.732l-23.675 9.47 1.353 201.573 20.969 2.030c29.763 2.706 34.497 22.999 12.174 52.084-9.47 12.174-17.587 26.381-17.587 29.763 0 4.059-8.794 20.293-20.293 35.85-10.822 14.88-20.293 31.115-20.293 35.173s-8.794 16.91-18.94 29.087c-20.293 23.675-183.31 110.258-206.985 110.258-8.118 0-25.028-6.089-37.879-12.851zM1013.086 675.954c66.967-34.497 79.141-43.291 98.757-72.377l21.646-33.82v-288.832l-28.411 4.736c-45.997 7.442-48.027 14.88-35.85 116.343 1.353 14.88-1.353 25.028-10.822 33.143-11.498 10.822-28.411 12.174-131.903 12.174-146.784 0.677-142.048 3.383-135.96-81.847 2.706-33.143 2.030-62.907-0.677-66.967-6.089-8.794-50.732-16.91-60.201-10.822-4.736 3.383-6.089 50.732-5.412 136.636 2.706 164.37 2.030 152.872 12.174 163.694 4.736 4.736 11.498 16.91 16.233 26.381 5.412 12.851 27.058 27.734 79.817 53.436 39.232 19.616 73.053 38.556 75.082 41.262 7.442 12.174 31.115 4.736 105.522-33.143zM908.917 355.33l2.030-45.321-30.439-4.059c-46.674-7.442-51.408-3.383-51.408 42.615 0 48.027 7.442 56.819 47.35 54.113l30.439-2.030 2.030-45.321zM1017.145 395.916c4.736-4.736 8.118-25.705 8.118-46.674 0-43.968-6.089-49.38-48.027-42.615l-26.381 4.736v41.938c0 22.999 2.030 43.968 4.736 45.997 7.442 8.118 52.76 5.412 61.554-3.383zM622.114 370.889c31.115-3.383 49.38-8.794 54.789-16.233 8.794-12.174 9.47-63.584 1.353-77.111-2.706-4.736-22.322-13.527-43.968-19.616-20.969-6.089-50.732-16.91-66.29-24.352-33.143-14.88-49.38-15.557-54.113-2.030-5.412 13.527 9.47 55.466 21.646 60.201 17.587 6.765 8.794 34.497-11.498 36.526-25.705 2.706-40.585-18.263-41.938-60.878-1.353-33.82-2.706-35.85-19.616-37.879l-18.94-2.030v50.056c0 36.526 2.706 52.76 10.146 58.848 5.412 4.736 10.146 12.174 10.146 17.587 0 22.322 56.142 28.411 158.282 16.91zM406.336 320.832c2.706-8.794 3.383-29.087 2.030-45.997l-2.030-29.763-47.35 2.030c-61.554 3.383-77.788 13.527-77.788 49.38 0 33.143 10.822 38.556 75.758 39.232 42.615 0.677 45.997-0.677 49.38-14.88zM371.837 207.871c16.233 0 40.585-4.736 53.436-10.146 13.527-5.412 37.879-10.146 54.113-10.146 42.615 0 58.172-21.646 33.82-48.703-14.204-15.557-86.583-17.587-91.994-2.030-2.706 5.412-16.91 18.94-33.143 30.439-25.028 18.263-33.143 20.293-65.613 18.94-31.115-2.030-37.879 0-39.909 10.146-3.383 14.88 23.675 25.705 44.644 17.587 8.794-3.383 29.087-6.089 44.644-6.089zM358.987 146.993c35.173-13.527 37.203-66.967 2.706-84.553-26.381-14.204-35.85-12.851-59.525 7.442-23.675 19.616-26.381 39.909-8.794 60.878 18.94 22.999 37.203 27.058 65.613 16.233zM563.942 103.026c1.353-0.677 2.706-10.146 3.383-20.969 0.677-14.204-3.383-20.969-16.91-29.087-17.587-10.146-18.94-9.47-28.411 2.706-13.527 17.587-13.527 33.82 0 47.35 9.47 8.794 31.115 8.794 41.938 0zM471.271 86.115c6.765-4.059 12.851-14.204 12.851-22.999 0-12.851-4.736-16.91-22.999-20.293-38.556-7.442-58.848 10.146-44.644 37.203 8.118 14.204 33.82 16.91 54.789 6.089zM262.258 69.879c4.736-23.675-3.383-32.467-25.705-29.763-22.999 2.706-28.411 18.94-12.851 35.173 16.233 16.233 35.173 13.527 38.556-5.412zM873.744 623.193c-8.118-7.442-10.822-23.675-10.822-57.495 0-70.349 3.383-73.729 68.32-73.729 49.38 0 54.113 1.353 59.525 14.88 8.794 24.352 0.677 108.905-11.498 119.050-16.233 12.174-92.67 10.822-105.522-2.706zM954.914 569.079c6.089-25.028-1.353-36.526-24.352-36.526s-30.439 11.498-24.352 36.526c6.765 28.411 41.938 27.734 48.703 0z" />
<glyph unicode="&#xe912;" glyph-name="honey" horiz-adv-x="1048" d="M885.879 939.361c-3.969-13.495-1.588-25.402 7.144-34.133 13.495-15.876 15.876-45.247 3.175-52.391-15.082-10.319-42.865 3.175-57.153 27.783-19.845 33.34-42.071 43.659-65.885 30.958-28.577-15.082-23.020-34.927 20.639-71.442 22.226-18.257 39.69-38.102 39.69-43.659 0-6.35-10.319-15.876-23.020-22.226-22.226-11.907-23.020-11.113-48.422 23.020-14.288 19.051-30.958 36.515-36.515 38.896-16.67 6.35-42.071-3.969-46.834-19.845-4.763-14.288 7.144-46.834 18.257-46.834 3.175-0.794 17.464-11.113 32.546-23.814 26.989-23.020 26.989-23.814 12.701-39.69-17.464-19.051-30.164-19.845-43.659-3.969-15.082 17.464-45.247 15.082-56.36-5.557-7.938-15.082-7.144-19.051 7.938-28.577 26.195-17.464 20.639-33.34-28.577-78.586l-46.040-42.071h-190.512c-104.781 0.794-198.45 0.794-207.975 0-17.464 0-18.257-3.175-18.257-56.36 0-50.803-1.588-57.153-22.226-76.998-65.091-61.122-90.493-115.101-94.462-203.212-3.969-73.823-1.588-87.318 25.402-127.802l20.639-30.164-46.040-42.865c-38.102-35.721-44.453-45.247-37.309-56.36 16.67-26.989 49.216-21.433 84.143 13.495 17.464 18.257 33.34 32.546 35.721 32.546 3.175 0 17.464-9.526 32.546-20.639 15.082-11.907 39.69-24.608 56.36-29.371 31.752-9.526 313.55-11.113 358.003-2.381 86.524 18.257 182.574 148.44 182.574 247.665 0 29.371-18.257 97.637-32.546 122.245-3.969 6.35-10.319 19.051-14.288 27.783s-22.226 30.164-39.69 47.628c-34.133 32.546-53.184 78.586-42.865 103.194 2.381 7.938 23.814 34.133 47.628 57.947l42.071 43.659 16.67-17.464c18.257-19.845 37.309-19.051 49.216 0.794 6.35 9.526 4.763 19.845-6.35 41.278-14.288 26.195-14.288 29.371-2.381 41.278 17.464 17.464 41.278 7.938 61.916-24.608 9.526-15.082 23.020-29.371 31.752-31.752 19.051-6.35 47.628 11.907 47.628 30.164 0 13.495-44.453 61.122-57.153 61.122-10.319 0-15.082 32.546-6.35 43.659 15.876 19.845 31.752 13.495 67.473-23.814 28.577-30.958 35.721-34.927 52.391-29.371 11.907 4.763 19.845 14.288 21.433 27.783 2.381 15.876-4.763 25.402-33.34 46.834-19.845 14.288-35.721 31.752-36.515 38.896 0 26.989 43.659 43.659 52.391 19.051 3.175-6.35 13.495-11.907 23.814-11.907 11.113 0 21.433 5.557 23.814 11.907 3.175 6.35 9.526 11.907 15.876 11.907s11.113 3.969 11.113 7.938c0 4.763-3.175 7.938-6.35 7.938-11.113 0-96.843 88.905-96.843 100.812 0 6.35-9.526 10.319-26.989 10.319-22.226 0-27.783-3.175-31.752-20.639zM563.597 444.031c3.969-39.69 7.144-46.834 42.071-78.586 35.721-33.34 46.040-52.391 29.371-57.947-3.969-0.794-116.688-1.588-250.047 0-265.129 2.381-265.922 2.381-217.501 46.834 57.947 53.184 63.504 61.122 58.741 86.524-8.732 50.009-11.113 49.216 169.079 47.628l164.316-0.794 3.969-43.659zM681.079 201.922c4.763-66.679-30.958-129.389-100.019-177.017l-42.865-29.371h-144.471c-130.977 0-146.059 1.588-172.254 16.67-64.298 35.721-104.781 93.668-114.307 161.935-10.319 73.029-34.133 67.473 287.355 67.473l284.18-0.794 2.381-38.896zM160.347 664.707c-11.907-11.907-11.907-32.546 0-44.453s407.219-13.495 438.177-1.588c22.226 7.938 26.989 30.164 11.113 46.040-13.495 13.495-435.795 13.495-449.29 0z" />
<glyph unicode="&#xe913;" glyph-name="jam" horiz-adv-x="941" d="M154.984 907.416c-34.595-38.746-47.049-91.33-41.514-186.811 4.151-95.481-12.454-170.205-55.351-256-143.914-278.141 51.2-528.605 412.368-528.605 357.016 0 543.827 233.859 412.368 518.919-38.746 87.178-56.735 177.124-53.968 265.686 8.303 211.719-33.211 239.395-358.4 239.395-229.708 0-275.373-8.303-315.503-52.584zM750.011 773.189c13.838-66.422 8.303-89.946-20.757-89.946-20.757 0-37.362 19.373-37.362 41.514 0 60.886-48.432 49.816-85.795-19.373l-31.827-60.886-52.584 63.654-51.2 63.654-51.2-63.654-52.584-63.654-31.827 60.886c-37.362 69.189-85.795 80.259-85.795 19.373 0-22.141-12.454-41.514-27.676-41.514-31.827 0-38.746 146.681-8.303 175.741 11.070 11.070 131.459 16.605 268.454 12.454l249.081-8.303 19.373-89.946zM595.027 600.216c65.038 0 235.243-136.995 235.243-190.962 0-20.757-116.238-30.443-359.784-30.443-392.995 0-413.751 9.686-275.373 139.762 77.492 71.957 210.335 113.47 298.897 91.33 19.373-5.535 65.038-9.686 101.016-9.686zM837.189 240.432c-29.059-282.292-624.086-311.351-729.254-35.978-41.514 112.086-12.454 120.389 372.238 113.47l363.935-8.303-6.919-69.189z" />
<glyph unicode="&#xe914;" glyph-name="leaf" horiz-adv-x="543" d="M229.878 914.024c0-14.629-43.886-89.861-96.131-165.094-181.812-263.314-175.543-507.82 12.539-603.951 60.604-31.347 81.502-56.424 91.951-112.849 14.629-79.412 39.706-106.58 75.233-85.682 16.718 10.449 14.629 22.988 0 41.796-35.527 43.886-6.269 106.58 73.143 154.645 108.669 62.694 146.286 135.837 142.106 275.853-2.090 131.657-10.449 152.555-150.465 367.804-89.861 137.927-148.376 190.171-148.376 127.478zM359.445 713.404c140.016-217.339 160.914-351.086 66.873-461.845-29.257-35.527-64.784-64.784-77.322-64.784s-39.706-14.629-60.604-35.527c-20.898-18.808-37.616-25.078-37.616-14.629s-33.437 37.616-71.053 58.514c-106.58 56.424-148.376 156.735-117.029 280.033 20.898 83.592 181.812 359.445 208.98 357.355 6.269 0 45.976-54.335 87.771-119.118z" />
<glyph unicode="&#xe915;" glyph-name="lemon" horiz-adv-x="1067" d="M511.722 733.090c-39.827-13.625-101.671-59.741-138.356-102.717l-66.032-76.513-81.757 83.851c-102.717 104.812-121.583 103.765-178.182-12.576-54.505-113.198-48.213-254.695 15.724-340.641 154.074-205.435 726.354-212.772 855.274-10.481 19.914 32.492 60.791 83.851 89.091 115.292l52.408 56.599-117.391 134.158c-151.978 172.941-265.176 213.821-430.783 153.025zM752.796 666.010c39.827-18.866 92.237-63.938 116.341-99.573 25.157-36.685 58.693-77.559 76.513-91.19 36.685-30.393-114.245-227.443-200.191-259.939-89.091-33.541-204.388-25.157-171.892 13.625 23.059 28.299 9.433 50.308-94.331 155.124l-121.583 122.631 44.023 61.841c84.898 119.489 223.254 158.269 351.123 97.475zM331.446 446.952c179.23-180.277 186.569-191.808 147.789-220.107-68.126-51.358-137.307-39.827-137.307 24.108 0 33.541-9.433 50.308-26.205 44.023-14.674-4.192-24.108-29.347-20.96-53.457 5.241-52.408-32.492-58.693-90.14-13.625-38.78 29.347-38.78 32.492-4.192 53.457 40.875 24.108 50.308 82.804 12.576 82.804-12.576 0-36.685-16.772-52.408-36.685-27.252-34.59-30.393-34.59-59.741 4.192-42.975 54.505-39.827 70.224 13.625 78.609 67.080 9.433 74.418 58.693 9.433 58.693-59.741 0-73.371 51.358-32.492 126.824 31.442 59.741 35.639 57.646 240.023-148.836z" />
<glyph unicode="&#xe916;" glyph-name="lettuce" horiz-adv-x="1184" d="M241.6 910.4c-27.2-28.8-49.6-72-49.6-96 0-25.6-35.2-54.4-78.4-65.6-147.2-36.8-147.2-334.4-1.6-560 137.6-212.8 504-300.8 740.8-179.2 305.6 158.4 436.8 648 198.4 737.6-64 24-91.2 57.6-91.2 107.2 0 89.6-123.2 128-268.8 83.2-56-17.6-129.6-20.8-164.8-6.4-105.6 41.6-230.4 32-284.8-20.8zM577.6 811.2c43.2-30.4 84.8-59.2 91.2-64s-4.8-30.4-25.6-54.4c-44.8-56-355.2 57.6-355.2 129.6 0 60.8 193.6 52.8 289.6-11.2zM886.4 811.2c24-70.4-97.6-78.4-164.8-11.2l-65.6 68.8 108.8-11.2c60.8-4.8 115.2-25.6 121.6-46.4zM480 604.8c214.4-121.6 376-580.8 184-523.2-147.2 43.2-217.6 113.6-254.4 256-38.4 142.4-67.2 171.2-105.6 110.4-36.8-59.2 51.2-252.8 153.6-340.8l102.4-84.8-94.4 22.4c-214.4 52.8-369.6 252.8-369.6 475.2 0 176 158.4 211.2 384 84.8zM1083.2 596.8c20.8-116.8-32-280-128-388.8-126.4-144-139.2-140.8-139.2 30.4-1.6 96-24 174.4-72 238.4-89.6 120-89.6 126.4 0 163.2 123.2 51.2 326.4 25.6 339.2-43.2z" />
<glyph unicode="&#xe917;" glyph-name="map" horiz-adv-x="987" d="M325.486 945.371c-62.171-7.314-142.629-100.571-140.8-164.571 0-27.429 43.886-133.486 95.086-237.714l95.086-188.343 98.743 199.314c78.629 160.914 95.086 208.457 85.943 254.171-21.943 100.571-109.714 151.771-234.057 137.143zM457.143 850.286c20.114-20.114 36.571-54.857 36.571-76.8 0-51.2-67.657-124.343-117.029-124.343s-120.686 71.314-120.686 122.514c0 54.857 62.171 115.2 118.857 115.2 25.6 0 62.171-16.457 82.286-36.571zM416.914 614.4c23.771 9.143 38.4 10.971 34.743 1.829-3.657-7.314-20.114-43.886-38.4-80.457-16.457-38.4-34.743-69.486-38.4-69.486-9.143 0-82.286 138.971-82.286 153.6 0 5.486 18.286 3.657 42.057-5.486 21.943-9.143 58.514-9.143 82.286 0zM636.343 729.6c-29.257-14.629-51.2-36.571-51.2-47.543 0-16.457 5.486-16.457 21.943 0 36.571 36.571 54.857 25.6 43.886-27.429-3.657-29.257-14.629-106.057-20.114-173.714l-10.971-120.686-111.543-16.457c-69.486-9.143-115.2-23.771-120.686-40.229s0-21.943 18.286-16.457c14.629 7.314 73.143 16.457 129.829 23.771l104.229 12.8v-91.429c0-49.371 5.486-115.2 10.971-144.457l10.971-54.857-153.6-27.429c-82.286-16.457-155.429-25.6-159.086-23.771-1.829 3.657 1.829 73.143 10.971 153.6 12.8 109.714 10.971 157.257-7.314 188.343-12.8 23.771-21.943 31.086-23.771 16.457 0-18.286-20.114-21.943-85.943-10.971-173.714 23.771-162.743 14.629-182.857 179.2-10.971 82.286-16.457 151.771-12.8 155.429 1.829 3.657 38.4-10.971 80.457-32.914s80.457-34.743 84.114-31.086c12.8 12.8-31.086 42.057-122.514 82.286l-85.943 36.571 9.143-76.8c5.486-40.229 14.629-120.686 21.943-175.543 5.486-54.857 1.829-179.2-7.314-274.286-14.629-122.514-12.8-177.371 0-186.514 10.971-7.314 87.771-23.771 171.886-38.4 138.971-23.771 168.229-23.771 320 5.486 149.943 29.257 181.029 31.086 277.943 7.314 58.514-12.8 126.171-25.6 149.943-25.6 42.057 0 42.057 1.829 29.257 151.771-18.286 184.686-18.286 204.8-1.829 391.314l14.629 148.114-146.286 56.686c-80.457 31.086-149.943 56.686-151.771 56.686-3.657-1.829-27.429-14.629-54.857-29.257zM848.457 663.771c58.514-23.771 106.057-47.543 106.057-56.686 0-7.314-5.486-71.314-10.971-142.629l-12.8-131.657-84.114 12.8c-45.714 5.486-107.886 10.971-137.143 10.971h-53.029l10.971 124.343c5.486 67.657 12.8 149.943 14.629 181.029 3.657 65.829-3.657 65.829 166.4 1.829zM824.686 310.857l100.571-12.8 18.286-157.257c10.971-87.771 18.286-160.914 18.286-160.914-1.829-1.829-58.514 10.971-128 27.429-142.629 34.743-146.286 40.229-162.743 217.6-9.143 100.571-5.486 113.371 20.114 106.057 18.286-5.486 76.8-14.629 133.486-20.114zM252.343 290.743c76.8-9.143 95.086-18.286 87.771-42.057-5.486-16.457-14.629-82.286-20.114-148.114l-12.8-120.686-135.314 27.429c-120.686 21.943-133.486 29.257-126.171 64 3.657 21.943 12.8 85.943 18.286 144.457 10.971 98.743 14.629 106.057 51.2 96.914 21.943-3.657 84.114-14.629 137.143-21.943z" />
<glyph unicode="&#xe918;" glyph-name="milk" horiz-adv-x="779" d="M220.383 821.983c-51.2-102.4-64.557-158.052-64.557-273.809v-144.696h-77.913c-77.913 0-77.913 0-77.913-100.174 0-62.33 22.261-144.696 60.104-222.609l60.104-122.435h647.791l-13.357 427.409c-6.678 253.774-22.261 456.348-37.843 496.417l-26.713 66.783h-405.148l-64.557-126.887zM592.139 810.852l-28.939-84.591-158.052-6.678c-89.043-4.452-160.278-2.226-160.278 4.452s17.809 46.748 37.843 91.27c37.843 77.913 37.843 77.913 186.991 77.913h151.374l-28.939-82.365zM690.087 759.652c0-24.487-15.583-44.522-33.391-44.522-37.843 0-40.070 4.452-20.035 53.426 20.035 51.2 53.426 44.522 53.426-8.904zM556.522 323.339v-320.557h-200.348l55.652 113.53c40.070 75.687 55.652 140.243 51.2 193.67l-6.678 82.365-233.739 13.357v253.774l166.957-6.678 166.957-8.904v-320.557zM712.348 332.243c0-327.235 0-329.461-48.974-329.461-51.2 0-51.2 2.226-46.748 327.235 2.226 182.539 6.678 329.461 6.678 329.461 0 2.226 20.035 2.226 44.522 2.226 42.296 0 44.522-15.583 44.522-329.461zM400.696 292.174c0-40.070-15.583-44.522-175.861-44.522-164.73 0-175.861 2.226-164.73 44.522 11.13 40.070 31.165 44.522 175.861 44.522 149.148 0 164.73-4.452 164.73-44.522zM331.687 91.826c-37.843-71.235-60.104-89.043-106.852-89.043s-69.009 17.809-97.948 77.913c-20.035 44.522-37.843 84.591-37.843 89.043 0 6.678 64.557 11.13 144.696 11.13h144.696l-46.748-89.043zM387.339 824.209c-22.261-37.843 28.939-80.139 60.104-48.974 26.713 26.713 8.904 73.461-24.487 73.461-11.13 0-26.713-11.13-35.617-24.487z" />
<glyph unicode="&#xe919;" glyph-name="organie" horiz-adv-x="1089" d="M276.698 944.749c-30.502-28.323-13.072-45.753 52.289-58.826 54.468-10.894 65.362-19.609 50.111-50.111-10.894-21.787-15.251-115.472-13.072-206.979 4.357-93.685 2.179-169.94-2.179-169.94-6.536 0-50.111 54.468-100.221 119.83s-104.579 119.83-119.83 119.83c-128.545 0-185.191-392.17-63.183-437.923 56.647-21.787 61.004-8.715 17.43 67.54-41.396 71.898-41.396 141.617 2.179 230.945l34.86 74.077 139.438-185.191 141.617-185.191h102.4c102.4 0 102.4 0 104.579 76.255 2.179 117.651 126.366 217.872 174.298 139.438 8.715-13.072 43.574-17.43 87.149-10.894 65.362 13.072 76.255 8.715 106.757-52.289 19.609-37.038 28.323-84.97 21.787-106.757-6.536-26.145 0-45.753 21.787-54.468 34.86-13.072 43.574 15.251 34.86 128.545-6.536 87.149-84.97 169.94-148.153 156.868-67.54-13.072-63.183 15.251 8.715 71.898 45.753 34.86 52.289 50.111 30.502 71.898-21.787 19.609-39.217 10.894-91.506-43.574-34.86-39.217-80.613-71.898-104.579-71.898-47.932 0-135.081 93.685-174.298 191.728-15.251 37.038-47.932 74.077-69.719 80.613-23.966 8.715-67.54 37.038-95.864 67.54-50.111 50.111-119.83 67.54-148.153 37.038zM535.966 715.983c19.609-39.217 54.468-93.685 78.434-119.83 43.574-47.932 43.574-47.932-2.179-95.864-23.966-26.145-52.289-84.97-61.004-130.723-17.43-76.255-19.609-80.613-61.004-50.111-34.86 26.145-45.753 67.54-56.647 233.123-8.715 111.115-10.894 206.979-4.357 217.872 21.787 37.038 74.077 10.894 106.757-54.468zM470.604 482.86c-15.251-21.787 47.932-80.613 65.362-61.004 19.609 17.43-6.536 80.613-32.681 80.613-10.894 0-26.145-8.715-32.681-19.609zM119.83 478.502c-21.787-32.681 2.179-50.111 43.574-32.681 19.609 6.536 28.323 21.787 21.787 34.86-17.43 28.323-47.932 28.323-65.362-2.179zM183.013 363.030c-32.681-26.145-34.86-37.038-15.251-58.826 21.787-21.787 32.681-19.609 61.004 2.179 34.86 28.323 45.753 87.149 15.251 87.149-10.894 0-37.038-13.072-61.004-30.502zM718.979 339.064c-34.86-41.396-6.536-87.149 34.86-52.289 32.681 28.323 41.396 84.97 10.894 84.97-10.894 0-30.502-15.251-45.753-32.681zM849.702 308.562c0-26.145 13.072-45.753 34.86-45.753 19.609 0 30.502 15.251 26.145 37.038-10.894 54.468-61.004 61.004-61.004 8.715zM298.485 291.132c-26.145-26.145-15.251-47.932 17.43-37.038 17.43 8.715 32.681 21.787 32.681 32.681 0 23.966-30.502 26.145-50.111 4.357zM19.609 160.409c-15.251-17.43-4.357-52.289 37.038-113.294l58.826-89.328h836.63l61.004 89.328c43.574 67.54 52.289 95.864 32.681 115.472-34.86 34.86-997.855 34.86-1026.179-2.179zM958.638 88.511c0-10.894-15.251-34.86-34.86-52.289-28.323-28.323-95.864-34.86-392.17-34.86-342.060 0-359.489 2.179-405.243 47.932l-50.111 50.111 63.183 10.894c104.579 17.43 819.2 0 819.2-21.787z" />
<glyph unicode="&#xe91a;" glyph-name="smoothie" horiz-adv-x="1000" d="M178.605 943.33c-211.944-52.391-230.995-409.6-23.814-495.33 45.247-21.433 83.349-50.009 83.349-69.060 0-16.67 16.67-45.247 35.721-61.916 21.433-19.051 35.721-85.73 40.484-197.656l7.144-171.46h381.023l7.144 171.46c4.763 111.926 19.051 178.605 40.484 197.656 47.628 38.102 50.009 395.312 7.144 411.981-16.67 4.763 23.814 38.102 92.874 71.442 128.595 66.679 164.316 100.019 130.977 121.451-28.577 16.67-290.53-126.214-307.2-166.698-26.195-66.679-116.688-38.102-157.172 52.391-57.153 116.688-190.512 171.46-338.158 135.74zM238.14 852.837c0-19.051 16.67-35.721 38.102-35.721 23.814 0 33.34 14.288 23.814 35.721-9.526 23.814 2.381 35.721 35.721 35.721 35.721 0 45.247-11.907 33.34-45.247-16.67-52.391 23.814-90.493 50.009-47.628 9.526 19.051 21.433 16.67 35.721-4.763 38.102-59.535 23.814-69.060-97.637-69.060h-119.070v-119.070c0-121.451-9.526-135.74-69.060-97.637-21.433 14.288-23.814 26.195-4.763 35.721 45.247 28.577 28.577 64.298-26.195 57.153-26.195-4.763-54.772 7.144-59.535 23.814-7.144 14.288 4.763 28.577 26.195 28.577s38.102 16.67 38.102 35.721c0 19.051-16.67 35.721-35.721 35.721s-35.721 14.288-35.721 30.958c0 50.009 28.577 66.679 61.916 38.102 19.051-14.288 33.34-14.288 42.865 0 9.526 11.907 4.763 28.577-9.526 38.102-30.958 19.051-7.144 59.535 38.102 59.535 19.051 0 33.34-16.67 33.34-35.721zM595.349 605.172c-21.433-40.484-47.628-50.009-154.791-50.009-114.307 0-130.977 7.144-130.977 47.628 0 38.102 19.051 45.247 150.028 52.391 80.967 4.763 150.028 4.763 154.791 2.381s-2.381-26.195-19.051-52.391zM721.563 602.791c-7.144-26.195-28.577-47.628-45.247-47.628-40.484 0-40.484 11.907-4.763 69.060s66.679 42.865 50.009-21.433zM716.8 433.712c-2.381-30.958-21.433-76.205-40.484-102.4-19.051-28.577-33.34-107.163-33.34-192.893v-142.884h-261.953v145.265c0 88.112-14.288 159.553-35.721 190.512-19.051 23.814-35.721 71.442-35.721 104.781 0 59.535 0 59.535 207.181 57.153 204.8-4.763 209.563-4.763 200.037-59.535z" />
<glyph unicode="&#xe91b;" glyph-name="tomato" horiz-adv-x="813" d="M469.835 884.706c-27.106-39.153-48.188-84.329-48.188-96.376s-12.047-45.176-30.118-69.271c-21.082-36.141-36.141-36.141-87.341 15.059-36.141 30.118-72.282 45.176-87.341 33.129-12.047-12.047 3.012-39.153 33.129-60.235 66.259-51.2 66.259-78.306-6.024-78.306-33.129 0-93.365-42.165-135.529-93.365-111.435-132.518-108.424-322.259 6.024-451.765 72.282-81.318 111.435-99.388 252.988-111.435 292.141-24.094 469.835 138.541 436.706 394.541-21.082 153.6-192.753 328.282-295.153 301.176-57.224-15.059-60.235-9.035-42.165 54.212 12.047 39.153 42.165 99.388 63.247 132.518 24.094 33.129 42.165 69.271 42.165 81.318 0 48.188-54.212 21.082-102.4-51.2zM683.671 490.165c168.659-168.659 9.035-463.812-256-463.812-120.471 0-265.035 69.271-307.2 147.576-48.188 93.365-36.141 228.894 30.118 313.224 54.212 69.271 81.318 75.294 262.024 75.294 168.659 0 210.824-12.047 271.059-72.282z" />
<glyph unicode="&#xe91c;" glyph-name="tractor" horiz-adv-x="1377" d="M303.845 785.871v-153.882h-120.429c-117.084 0-118.757-1.673-95.339-108.721 11.709-60.215 23.417-115.412 25.090-125.447 0-8.364-18.399-58.542-43.488-110.393-91.994-190.68 66.905-364.633 282.674-311.109 60.215 15.054 105.376 56.87 128.793 122.102 50.179 130.465 123.774 125.447 267.621-18.399 291.037-291.037 722.575 1.673 546.95 371.324-30.107 63.56-66.905 113.739-83.632 113.739s-41.816 56.87-53.525 125.447c-43.488 250.895-33.452 242.531-304.418 242.531h-247.55l-38.471-152.209c-53.525-207.406-180.644-209.079-180.644-1.673 0 75.268-18.399 137.155-41.816 145.519-30.107 10.036-41.816-31.78-41.816-138.828zM872.539 749.073c0-113.739-3.345-117.084-133.81-117.084-133.81 0-157.227 65.232-76.941 209.079 50.179 90.322 210.751 20.071 210.751-91.994zM1053.182 812.633c40.143-105.376 21.744-180.644-46.833-180.644-53.525 0-66.905 21.744-66.905 117.084 0 123.774 75.268 165.59 113.739 63.56zM722.002 473.090c-25.090-50.179-55.197-118.757-63.56-150.537-25.090-80.286-117.084-73.596-212.424 15.054-43.488 41.816-118.757 76.941-168.935 78.613-65.232 3.345-93.667 23.417-100.358 76.941-11.709 68.578 0 71.923 291.037 71.923h301.073l-46.833-91.994zM1176.957 468.071c120.429-122.102 125.447-245.876 15.054-356.27-115.412-115.412-291.037-112.066-384.705 6.69-215.769 274.311 122.102 595.456 369.651 349.579zM417.583 255.648c21.744-36.797 20.071-81.958-6.69-142.174-58.542-127.12-240.858-108.721-289.364 28.435-63.56 182.316 190.68 279.329 296.056 113.739zM852.466 379.422c-107.048-163.918 78.613-339.544 245.876-230.822 83.632 55.197 103.703 207.406 35.125 275.983-71.923 71.923-220.787 46.833-281.002-45.161zM1089.98 297.463c0-61.887-20.071-86.977-75.268-93.667-81.958-11.709-128.793 60.215-95.339 145.519 33.452 88.649 170.608 46.833 170.608-51.851zM221.885 252.302c-78.613-56.87-46.833-155.554 48.506-155.554 86.977 0 123.774 90.322 61.887 153.882-40.143 40.143-56.87 40.143-110.393 1.673z" />
</font>
</defs>
</svg>
